Fury download torrent

Fury Poster (cover)
Images
  • Download Torrent Fury Blu-Ray screen #1

1945, in World War II Germany, the tough Sergeant Don 'Wardaddy' Collier commands a tank and survives a German attack with his veteran crew composed of Boyd 'Bible' Swan, Trini 'Gordo' Garcia and Grady 'Coon-Ass' Travis. He receives a rookie soldier Norman Ellison as the substitute for his deceased gunner and he tries to harden the youth along the way.

Loading...
October 17, 2014
Walter(± reputation)
Published on 23/02/2017

Torrent info

Torrent size:2.88 Gb
Duration:2h 14mn
Languages:English
Subtitles:English
Quality:Blu-Ray
Resolution:Full HD 1080p (1920x1080, 16:9)
Format:MP4
Video:x264, AVC, 2 420 Kbps,
Audio:5.1, AC-3, 6 ~ channels (L C R, Side: L R, LFE)

Info Hash: 20774b82475574eb90b816ff19346a2a6f4ec51a

Movie info

Movie info

Genre(s):Action, Drama, War
Country:United States
Film Director:David Ayer
Actors:Brad Pitt, Logan Lerman, Shia LaBeouf, Michael Pena, Jon Bernthal, Jason Isaacs, Scott Eastwood
Wikipedia
Warning!

Your IP: 54.162.128.159 | Browser:

More infoBecome anonymous

Torrent Description

Full torrent description

99.99% >>> SYNCED GUARANTEED

"Totally scrutinized / analyzed to be a verified torrent."


  • Source : Blu-ray ~ 1080p
  • Spoken Language : English
  • Audio : 6 ~ Channels Only

Subs Info:

  • x1 ~ English foreign parts only.srt
  • All .srt UTF-8 .idx & .ass subs can be turned On/Off

General Metadata

  • Complete name : Fury 2014 1080p.BluRay.5.1.x264 . NVEE.mp4
  • Format : MPEG-4
  • Format profile : Base Media
  • Codec ID : isom
  • File size : 2.88 GiB
  • Duration : 2h 14mn
  • Overall bit rate : 3 062 Kbps
  • Encoded date : UTC 2015-05-13 02:24:26
  • Tagged date : UTC 2015-05-13 02:24:26

Video

  • ID : 1
  • Format : AVC
  • Format/Info : Advanced Video Codec
  • Format profile : High@L5.1
  • Format settings, CABAC : Yes
  • Format settings, ReFrames : 5 frames
  • Codec ID : avc1
  • Codec ID/Info : Advanced Video Coding
  • Duration : 2h 14mn
  • Bit rate : 2 420 Kbps
  • Maximum bit rate : 11.4 Mbps
  • Width : 1 920 pixels
  • Height : 808 pixels
  • Display aspect ratio : 2.40:1
  • Frame rate mode : Constant
  • Frame rate : 23.976 fps
  • Color space : YUV
  • Chroma subsampling : 4:2:0
  • Bit depth : 8 bits
  • Scan type : Progressive
  • Bits/(Pixel*Frame) : 0.065
  • Stream size : 2.28 GiB (79%)
  • Writing library : x264 core 146 r2538 121396c
  • Encoded from Physical Blu-ray / Region B

Audio

  • ID : 2
  • Format : AC-3
  • Format/Info : Audio Coding 3
  • Mode extension : CM (complete main)
  • Format settings, Endianness : Big
  • Codec ID : ac-3
  • Duration : 2h 14mn
  • Bit rate mode : Constant
  • Bit rate : 640 Kbps
  • Channel(s) : 6 channels
  • Channel positions : Front: L C R, Side: L R, LFE
  • Sampling rate : 48.0 KHz
  • Bit depth : 16 bits
  • Compression mode : Lossy
  • Stream size : 616 MiB (21%)
  • Language : English
  • Encoded date : UTC 2015-05-13 02:37:19
  • Tagged date : UTC 2015-05-13 02:38:51
  • Encoded from Physical Blu-ray 6 Channel audio "Always".

Comments (0)

avatar